<?xml version="1.0" standalone="no"?>
<!DOCTYPE svg PUBLIC "-//W3C//DTD SVG 1.1//EN" "http://www.w3.org/Graphics/SVG/1.1/DTD/svg11.dtd" >
<svg xmlns="http://www.w3.org/2000/svg">
<metadata>Generated by IcoMoon</metadata>
<defs>
<font id="icofont-shc-b2c" horiz-adv-x="1024">
<font-face units-per-em="1024" ascent="960" descent="-64" />
<missing-glyph horiz-adv-x="1024" />
<glyph unicode="&#x20;" horiz-adv-x="512" d="" />
<glyph unicode="&#xe900;" glyph-name="arrow-down" d="M512 111.272l52.042 45.103 459.958 507.54-119.944 104.085-392.056-446.575-392.056 446.575-119.944-104.085 459.958-507.54z" />
<glyph unicode="&#xe901;" glyph-name="arrow-left" d="M183.636 439.636l45.103-52.042 507.54-459.958 104.085 119.944-446.575 392.056 446.575 392.056-104.085 119.944-507.54-459.958z" />
<glyph unicode="&#xe902;" glyph-name="arrow-right" d="M840.364 439.636l-45.103 52.042-507.54 459.958-104.085-119.944 446.575-392.056-446.575-392.056 104.085-119.944 507.54 459.958z" />
<glyph unicode="&#xe903;" glyph-name="arrow-up" d="M512 768l-52.042-45.103-459.958-507.54 119.944-104.085 392.056 446.575 392.056-446.575 119.944 104.085-459.958 507.54z" />
<glyph unicode="&#xe904;" glyph-name="box-check" d="M464.307 317.352l477.669 474.42c19.3 19.168 48.249 19.168 67.549 0s19.3-47.921 0-67.090l-545.218-541.509-284.671 282.735c-19.3 19.168-19.3 47.921 0 67.090s48.249 19.168 67.549 0l217.122-215.645zM812.138 836.414h-741.517v-776.828h776.828v317.793l70.621 70.621v-459.034h-918.069v918.069h882.759l-70.621-70.621z" />
<glyph unicode="&#xe905;" glyph-name="box-uncheck" d="M70.621 836.414v-776.828h776.828v776.828h-776.828zM0 907.034h918.069v-918.069h-918.069v918.069z" />
<glyph unicode="&#xe906;" glyph-name="calendar" d="M261.841 932.324c-17.332 0-31.382-14.050-31.382-31.382v-120.623c-36.389-13.059-62.763-47.956-62.763-88.588 0-51.623 42.522-94.145 94.145-94.145s94.145 42.522 94.145 94.145c0 40.632-26.374 75.529-62.763 88.588v120.623c0 17.332-14.051 31.382-31.382 31.382zM743.027 932.324c-17.332 0-31.382-14.050-31.382-31.382v-120.623c-36.389-13.059-62.763-47.956-62.763-88.588 0-51.623 42.522-94.145 94.145-94.145s94.145 42.522 94.145 94.145c0 40.632-26.373 75.529-62.763 88.588v120.623c0 17.332-14.051 31.382-31.382 31.382zM115.393 842.363c-63.379 0-115.393-52.015-115.393-115.393v-647.901c0-63.378 52.014-115.394 115.393-115.394h773.427c63.378 0 115.393 52.015 115.393 115.394v647.901c0 63.378-52.015 115.393-115.393 115.393h-62.436c-16.579 0.234-31.709-14.801-31.709-31.382s15.129-31.616 31.709-31.382h62.436c29.634 0 52.63-22.996 52.63-52.63v-177.503h-878.687v177.503c0 29.634 22.996 52.63 52.63 52.63h62.436c16.579-0.234 31.709 14.801 31.709 31.382s-15.129 31.616-31.709 31.382h-62.436zM345.199 842.363c-17.332 0-31.382-14.050-31.382-31.382s14.050-31.382 31.382-31.382h313.817c17.332 0 31.382 14.051 31.382 31.382s-14.050 31.382-31.382 31.382h-313.817zM261.841 723.113c17.704 0 31.382-13.678 31.382-31.382s-13.678-31.382-31.382-31.382c-17.703 0-31.382 13.678-31.382 31.382s13.678 31.382 31.382 31.382zM743.027 723.113c17.704 0 31.382-13.678 31.382-31.382s-13.678-31.382-31.382-31.382c-17.703 0-31.382 13.678-31.382 31.382s13.678 31.382 31.382 31.382zM62.763 486.704h878.687v-407.635c0-29.634-22.996-52.63-52.63-52.63h-773.427c-29.634 0-52.63 22.996-52.63 52.63v407.635z" />
<glyph unicode="&#xe907;" glyph-name="email" d="M994.869 806.4v-716.8h-994.869v716.8h994.869zM889.821 151.393l-281.159 284.248-111.228-95.779-111.228 95.779-281.159-284.248h784.772zM61.793 194.648l278.069 281.159-278.069 234.814v-515.972zM114.317 744.607l383.117-321.324 383.117 321.324h-766.234zM933.076 710.621l-278.069-234.814 278.069-281.159v515.972z" />
<glyph unicode="&#xe908;" glyph-name="navigation" d="M0 111.543h1024v-87.771h-1024v87.771zM0 491.886h1024v-87.771h-1024v87.771zM0 872.229h1024v-87.771h-1024v87.771z" />
<glyph unicode="&#xe909;" glyph-name="close" d="M580.549 445.564l443.394 443.394-71.033 71.042-443.399-443.399-439.021 439.021-70.49-70.5 440.897-437.136-437.062-437.062 71.033-71.042 437.062 437.062 437.098-440.944 70.538 70.547z" />
<glyph unicode="&#xe90a;" glyph-name="play" d="M28.444 960v-1024l967.111 512-967.111 512zM120.444 794.57l678.758-346.57-678.758-346.57v693.139z" />
<glyph unicode="&#xe90b;" glyph-name="plus" d="M438.857 960h134.649v-438.857h450.494v-134.649h-450.494v-450.494h-134.649v450.494h-438.857v134.649h438.857z" />
<glyph unicode="&#xe90c;" glyph-name="quote" d="M1017.874-51.512l-276.995 79.922c-76.758-43.291-160.19-66.602-246.96-66.602-273.658 0-493.919 219.785-493.919 492.852s220.261 492.852 493.919 492.852c273.658 0 493.919-219.785 493.919-492.852 0-83.252-23.361-166.504-63.409-239.766l93.444-266.407zM720.684 102.723l192.12-56.561-66.14 188.538 6.299 9.427c40.944 62.846 59.841 135.119 59.841 210.534 0 229.388-188.97 417.925-418.884 417.925s-418.884-185.395-418.884-417.925c0-229.388 185.821-417.925 418.884-417.925 75.588 0 151.176 18.854 217.316 59.704l9.449 6.285zM393.498 300.503c-85.308 30.002-85.308 206.265-85.308 243.767v26.252h127.666v-111.296h-72.030c3.709-67.505 18.545-94.968 48.218-106.219l-18.545-52.504zM581.993 300.503c-85.308 30.002-85.308 206.265-85.308 243.767v26.252h127.666v-111.296h-72.030c3.709-67.505 18.545-94.968 48.218-106.219l-18.545-52.504z" />
<glyph unicode="&#xe90d;" glyph-name="world" d="M512 960c-282.77 0-512-229.23-512-512s229.23-512 512-512c282.77 0 512 229.23 512 512 0 135.791-53.943 266.020-149.962 362.039s-226.247 149.961-362.038 149.961zM972.8 473.6h-153.6c-4.864 169.728-56.832 315.392-135.424 401.92 166.237-66.453 278.938-223.177 289.024-401.92zM486.4 906.496v-432.896h-230.4c7.68 226.816 105.984 409.6 230.4 432.896zM486.4 422.4v-432.896c-124.416 22.272-222.72 204.8-230.4 432.896h230.4zM537.6-10.496v432.896h230.4c-7.68-226.816-105.984-409.6-230.4-432.896zM537.6 473.6v432.896c124.416-23.296 222.72-206.080 230.4-432.896h-230.4zM340.992 875.52c-78.848-86.528-130.56-232.192-136.192-401.92h-153.6c10.218 178.928 123.254 335.701 289.792 401.92zM52.48 422.4h153.6c4.864-169.728 56.576-315.392 135.424-401.92-166.237 66.453-278.938 223.177-289.024 401.92zM683.008 20.48c78.592 86.528 130.56 232.192 135.424 401.92h153.6c-10.086-178.743-122.787-335.467-289.024-401.92z" />
<glyph unicode="&#xe90e;" glyph-name="pricetag" d="M233.152 826.231h345.666c6.225 0.017 12.202-2.444 16.61-6.841l421.713-421.714c9.13-9.146 9.13-23.958 0-33.105l-421.713-421.714c-9.149-9.145-23.979-9.145-33.128 0l-421.691 421.714c-4.424 4.387-6.919 10.356-6.932 16.587v345.712l46.877-46.877v-289.134l328.027-328.027 388.54 388.54-327.982 327.982h-289.134l-46.855 46.877zM930.227 418.268l-388.54-388.54 37.131-37.154 388.517 388.586-37.108 37.108zM33.128 960l231.619-231.642c6.633 2.641 13.792 4.21 21.3 4.21 32.069 0 58.545-26.545 58.545-58.614s-26.476-58.545-58.545-58.545c-32.069 0-58.637 26.476-58.637 58.545 0 7.5 1.597 14.649 4.232 21.277l-231.642 231.55 33.128 33.219zM286.046 685.713c-6.747 0-11.759-5.012-11.759-11.759s5.013-11.668 11.759-11.668c6.747 0 11.668 4.921 11.668 11.668s-4.921 11.759-11.668 11.759z" />
<glyph unicode="&#xe90f;" glyph-name="room" d="M999.619 421.522c13.458 0 24.381 10.923 24.381 24.381v245.906c0 13.458-10.923 24.381-24.381 24.381h-219.429v219.429c0 13.458-10.923 24.381-24.381 24.381h-145.25c-13.458 0-24.381-10.923-24.381-24.381s10.923-24.381 24.381-24.381h120.869v-438.857h-463.238c-13.458 0-24.381-10.923-24.381-24.381v-219.429h-195.048v682.667h294.558c13.458 0 24.381 10.922 24.381 24.381s-10.923 24.381-24.381 24.381h-318.939c-13.458 0-24.381-10.923-24.381-24.381v-731.429c0-13.458 10.923-24.381 24.381-24.381h219.429v-219.429c0-13.458 10.923-24.381 24.381-24.381h75.13c13.458 0 24.381 10.923 24.381 24.381s-10.923 24.381-24.381 24.381h-50.749v438.857h438.857v-438.857h-109.166c-0.256 0-0.488-0.073-0.744-0.073-12.288 130.365-122.283 232.729-255.805 232.729-6.741 0-12.19-5.449-12.19-12.19s5.449-12.19 12.19-12.19c127.208 0 230.741-102.644 232.485-229.425-0.146-1.073-0.317-2.121-0.317-3.23 0-13.458 10.923-24.381 24.381-24.381h377.356c13.458 0 24.381 10.923 24.381 24.381v246.784c0 13.458-10.923 24.381-24.381 24.381s-24.381-10.922-24.381-24.381v-222.403h-195.048v682.667h195.048v-221.525c0-13.458 10.923-24.381 24.381-24.381z" />
<glyph unicode="&#xe910;" glyph-name="wave" d="M41.759 413.66l-41.759 45.068c91.575 84.851 186.403 116.232 281.92 90.945 45.478-12.040 69.991-22.544 178.229-72.817 48.149-22.364 78.535-35.601 109.914-47.231 53.095-19.679 97.87-29.736 138.016-29.736 84.801 0 166.745 55.68 245.94 170.992l50.646-34.783c-89.591-130.448-188.489-197.648-296.586-197.648-48.517 0-100.017 11.568-159.369 33.566-33.307 12.345-64.91 26.111-114.443 49.118-103.965 48.289-127.693 58.457-168.071 69.146-73.269 19.397-147.227-5.077-224.438-76.619z" />
<glyph unicode="&#xe911;" glyph-name="star" d="M512 221.299l-300.946-217.633 113.984 353.469-299.979 218.964 371.392 0.823 115.549 352.961 115.549-352.961 371.392-0.823-299.979-218.964 113.984-353.469z" />
<glyph unicode="&#xe912;" glyph-name="arrow-form" d="M504.849 269.888l444.386 434.112 74.765-74.118-521.050-521.442-502.95 521.442 74.765 74.118z" />
<glyph unicode="&#xe913;" glyph-name="calendar-form" d="M827.716 586.24c0.011 78.846 0.017 126.155 0.017 126.155 0 0.024-25.418 0.044-87.040 0.062v-33.956c0-18.907-25.391-34.233-44.373-34.233-18.851 0-44.373 15.31-44.373 34.233v33.973c-104.256 0.022-175.668 0.037-279.893 0.047v-34.020c0-18.907-25.391-34.233-44.373-34.233-18.851 0-44.373 15.31-44.373 34.233v34.026c-61.527 0.005-86.871 0.008-86.871 0.008-0.035 0-0.065-47.376-0.089-126.293h631.369zM827.706 512.853h-631.378c-0.041-166.977-0.061-329.248-0.061-329.248 0-0.065 210.433-0.111 631.298-0.138 0.076 108.257 0.123 218.053 0.141 329.387zM740.693 806.4h112.471c37.796 0 68.436-30.571 68.436-68.405v-579.99c0-37.779-30.618-68.405-68.436-68.405h-682.329c-37.796 0-68.436 30.571-68.436 68.405v579.99c0 37.779 30.618 68.405 68.436 68.405h112.471v68.167c0 18.907 25.391 34.233 44.373 34.233 18.851 0 44.373-15.31 44.373-34.233v-68.167h279.893v68.167c0 18.907 25.391 34.233 44.373 34.233 18.851 0 44.373-15.31 44.373-34.233v-68.167z" />
<glyph unicode="&#xe914;" glyph-name="phone-form" d="M443.082 649.158l-93.492 181.978c-11.215 19.622-33.725 29.87-55.888 25.444l-108.934-16.607c-24.938-4.725-45.672-21.985-54.842-45.652-68.039-177.060-7.131-407.996 151.595-567.196l1.293-1.292c159.184-158.706 395.164-229.693 572.21-161.645 23.669 9.17 45.966 39.978 50.692 64.918l21.645 83.754c4.405 22.16-5.839 44.658-25.446 55.884l-176.949 113.643c-20.587 11.76-46.493 8.326-63.305-8.392l-15.698-15.673c-25.441-25.391-64.433-59.285-80.818-75.62-53.315 19.17-91.598 34.905-131.458 75.169-40.255 39.872-71.098 88.231-90.275 141.546 20.048 20.097 66.495 61.594 91.296 86.432 16.711 16.819 20.137 42.725 8.373 63.311zM356.49 634.305l-35.858-41.003c-46.984-47.080-80.225-56.034-76.11-68.367 20.168-63.625 69.824-160.344 117.274-207.284 46.88-47.387 145.861-98.803 209.391-118.982 12.571-4.19 21.758 4.995 60.032 43.185l59.66 59.527c2.439 2.417 6.191 2.908 9.17 1.2l151.491-84.988c2.858-1.627 4.351-4.903 3.702-8.127l-16.198-51.433c-1.798-9.56-8.331-17.551-17.344-21.213-156.817-60.275-328.178-19.945-471.366 122.814l-1.211 1.212c-142.778 143.204-201.395 334.859-158.093 476.424 3.662 9.011 11.653 15.543 21.212 17.34l71.813 16.195c3.219 0.635 6.485-0.851 8.12-3.696l65.506-123.617c1.711-2.982 1.224-6.739-1.191-9.186z" />
<glyph unicode="&#xe915;" glyph-name="mail-form" d="M961.173 735.073c-6.811 12.646-20.128 20.414-34.489 20.118l-421.478-4.311-410.635-2.221c-7.319-0.079-14.469-2.206-20.641-6.14l-2.613-0.914c-12.416-6.917-20.115-20.014-20.118-34.227v-525.242c0-21.645 17.547-39.192 39.192-39.192h843.217c21.645 0 39.192 17.547 39.192 39.192v525.242c-0.044 10.41-4.227 20.374-11.627 27.695zM811.294 660.736l-301.384-163.593-290.802 159.021 592.186 4.572zM879.52 236.224h-735.041v366.020l344.789-204.483c12.55-7.674 28.34-7.674 40.89 0l349.362 204.875v-366.412z" />
<glyph unicode="&#xe916;" glyph-name="number-form" d="M120.913 697.169h71.728v-478.185h-86.757v349.759l-105.884-101.785v112.715l120.913 117.497zM397.577 297.542h222.015v-78.559h-336.779v82.658l162.583 153.019c56.699 53.284 76.51 76.51 76.51 110.666s-25.959 60.115-63.53 60.115h-6.831c-40.987 0-71.728-28.691-73.094-77.876h-90.855c0 97.686 71.045 156.435 166.682 156.435s158.484-56.699 158.484-135.258c0-61.481-28.691-99.736-90.855-157.118l-124.328-114.081zM851.853 212.152c-100.419 0-169.414 52.6-169.414 138.674h90.855c3.416-34.839 29.374-60.115 75.143-60.115h6.831c54.65 0 77.193 34.156 77.193 64.897 0 40.987-34.839 62.847-84.707 62.847h-32.107v78.559h28.691c51.917 0 85.39 25.959 85.39 66.946 0 34.156-30.057 61.481-71.045 61.481h-6.831c-35.522 0-66.263-22.543-69.678-61.481h-90.855c0 81.975 70.362 140.040 163.949 140.040 102.468 0 165.316-61.481 165.316-133.209 0-54.65-33.473-97.003-84.024-110.666 50.551-13.662 87.44-56.699 87.44-111.349 0-88.806-73.094-136.624-172.147-136.624z" />
<glyph unicode="&#xe917;" glyph-name="upload-form" d="M861.053 389.088l81.711 0.928-2.783-351.616h-885.998l-2.783 351.616h80.784v-270.832h729.069v269.905zM257.194 519.384l-51.061 59.892 289.457 278.324 299.662-278.324-61.301-59.892-195.65 192.902v-473.388h-81.711v471.533l-199.396-191.046z" />
<glyph unicode="&#xe918;" glyph-name="instergram" d="M512-64c282.77 0 512 229.23 512 512s-229.23 512-512 512c-282.77 0-512-229.23-512-512s229.23-512 512-512zM720.308 187.648h-416.615c-1.108 0.178-2.223 0.394-3.331 0.528-22.905 2.944-42.16 20.43-47.26 42.986-0.595 2.632-0.974 5.301-1.45 7.947v417.76c0.171 0.974 0.372 1.94 0.506 2.914 3.286 23.374 20.355 41.952 43.424 47.208 2.483 0.565 5.018 0.907 7.538 1.36h417.76c0.966-0.171 1.926-0.387 2.907-0.513 23.634-3.234 42.881-21.344 47.439-44.681 0.446-2.275 0.758-4.565 1.123-6.847v-416.622c-0.379-2.32-0.706-4.669-1.152-6.981-4.156-21.389-21.53-39.127-42.792-43.64-2.676-0.58-5.39-0.959-8.096-1.42zM307.982 497.223v-1.405c0-77.057-0.007-154.115 0.007-231.172 0-11.085 9.598-20.616 20.682-20.616 122.191-0.007 244.375-0.007 366.567 0 11.189 0 20.734 9.516 20.734 20.682 0.007 76.968 0 153.929 0 230.889v1.598h-49.706c7.018-22.43 9.174-45.246 6.423-68.5-2.766-23.262-10.259-44.911-22.467-64.902-12.215-20.013-28.050-36.592-47.439-49.788-50.256-34.228-116.422-37.239-169.749-7.308-26.957 15.114-48.123 36.191-62.88 63.348-22.013 40.525-25.53 83.057-12.616 127.187-16.489-0.015-32.912-0.015-49.558-0.015zM512.004 553.516c-57.75 0.037-104.698-46.428-105.509-103.918-0.833-59.036 46.428-105.836 103.085-107.055 58.955-1.264 106.639 45.84 107.88 103.13 1.271 59.081-46.383 107.88-105.457 107.843zM670.23 574.667v0.097c8.564 0 17.159-0.164 25.73 0.045 11.025 0.275 20.006 9.724 20.006 20.764 0.007 16.437 0.007 32.882 0 49.32 0 11.791-9.33 21.173-21.106 21.181-16.393 0.007-32.786 0.015-49.186 0-11.746-0.015-21.106-9.419-21.114-21.21-0.007-16.296-0.052-32.592 0.059-48.896 0.015-2.431 0.476-4.959 1.249-7.263 2.944-8.676 10.891-13.999 20.623-14.044 7.91-0.015 15.82 0.007 23.738 0.007z" />
<glyph unicode="&#xe919;" glyph-name="facebook" d="M512-64c282.77 0 512 229.23 512 512s-229.23 512-512 512c-282.77 0-512-229.23-512-512s229.23-512 512-512zM439.726 169.478v278.544h-57.497v95.992h57.497v57.633c0 78.31 32.466 124.876 124.708 124.876h76.793v-96.002h-48.001c-35.907 0-38.282-13.415-38.282-38.451l-0.13-48.045h86.958l-10.175-95.992h-76.782v-278.555h-115.087z" />
<glyph unicode="&#xe91a;" glyph-name="tripadvisor" d="M512-64c282.77 0 512 229.23 512 512s-229.23 512-512 512c-282.77 0-512-229.23-512-512s229.23-512 512-512zM615.876 695.645c23.006-3.263 45.535-9.060 67.788-15.922 38.861-12.004 75.532-28.681 110.019-50.315 2.4-1.493 5.603-2.441 8.43-2.441 40.517-0.168 81.009-0.109 121.476-0.143 3.261 0 6.506-0.344 9.759-0.528 0-0.797 0.117-1.132-0.017-1.309-1.89-2.928-3.805-5.797-5.703-8.707-13.748-21.148-25.489-43.252-32.414-67.697-0.761-2.617-0.912-4.824 0.861-7.399 36.060-51.943 47.567-108.969 32.497-170.442-13.213-53.914-44.021-95.95-90.827-125.705-33.459-21.282-70.422-31.416-109.919-31.634-16.583-0.101-33.099 2.139-49.306 6.35-39.497 10.285-73.349 30.023-101.238 59.937-3.671 3.926-7.142 8.028-11.064 12.457-14.752-22.054-29.269-43.747-44.13-66.002-14.81 22.197-29.127 43.68-43.411 65.080-0.987-0.52-1.271-0.579-1.463-0.763-0.326-0.268-0.602-0.596-0.87-0.906-33.735-39.972-76.184-64.476-127.907-72.671-28.759-4.572-57.259-2.928-85.199 4.798-39.597 10.914-73.249 31.869-100.436 62.781-26.577 30.233-43.093 65.331-49.306 105.245-7.1 37.237 1.555 73.158 3.705 81.874 6.255 25.334 17.16 48.596 32.129 69.987 1.054 1.518 1.422 4.203 0.92 6.015-6.105 22.457-16.625 42.883-28.943 62.445-3.128 4.974-6.874 9.58-10.336 14.353v1.661c0.694-0.092 1.38-0.218 2.057-0.218 41.445-0.017 82.882-0.034 124.328 0.050 1.806 0 3.813 0.747 5.352 1.736 29.119 18.74 60.144 33.588 92.742 45.148 23.516 8.322 47.508 14.823 71.986 19.571 23.7 4.597 47.525 7.843 71.601 9.429 58.714 4.505 105.629-1.728 136.838-6.115zM563.919 421.074c0-91.294 73.842-165.87 164.527-165.517 91.028 0.327 164.535 72.814 164.469 165.115-0.067 95.119-76.987 166.625-167.998 164.779-89.848-1.887-160.179-74.534-160.998-164.377zM317.128 586.063c-88.527 0.772-165.715-73.342-164.168-167.749 1.438-88.031 73.775-162.674 166.016-161.877 90.183 0.78 162.671 74.643 162.838 164.1 0.134 91.907-73.24 165.526-164.686 165.526zM325.29 629.131c50-3.062 93.938-20.544 131.051-54.401 37.038-33.79 58.739-75.943 66.625-125.512 8.12 48.982 29.244 90.732 65.588 124.195 36.411 33.488 79.746 51.062 128.936 54.778-58.363 26.030-119.921 37.086-183.268 38.311-72.011 1.418-142.048-9.228-208.933-37.372zM728.111 525.228c56.323 0.101 101.941-45.425 101.941-101.864 0-56.657-44.841-100.463-97.743-102.476-59.082-2.273-106.356 44.938-106.34 102.225 0.050 57.932 47.659 103.072 102.142 102.116zM794.544 423.113c-0.025 36.835-29.713 66.757-66.165 66.757-36.879 0-66.901-29.771-67.060-66.489-0.134-36.558 30.047-66.975 66.575-67.076 36.603-0.143 66.667 30.048 66.65 66.808zM314.954 525.228c56.289 0.059 101.974-45.542 101.841-101.965-0.167-57.127-45.050-99.96-97.024-102.334-59.316-2.726-107.176 44.703-107.067 102.292 0.117 58.343 48.052 102.98 102.25 102.007zM381.312 423.339c-0.117 37.053-29.98 66.59-67.269 66.522-35.976-0.067-66.107-30.518-66.032-66.732 0.092-36.633 30.198-66.757 66.834-66.858 36.419-0.084 66.558 30.334 66.466 67.068zM728.162 457.011c18.665 0.017 33.969-15.343 33.794-33.957-0.176-18.656-15.228-33.773-33.584-33.781-18.908 0-34.095 14.982-34.053 33.546 0.033 19.26 14.794 34.176 33.844 34.192zM314.778 457.313c18.95 0.017 34.178-15.167 34.253-34.117 0.075-18.782-15.295-34.209-34.153-34.259-19.309-0.042-34.203 14.923-34.187 34.402 0 19.109 14.86 33.949 34.086 33.974z" />
<glyph unicode="&#xe91b;" glyph-name="twitter" d="M512-64c-282.77 0-512 229.23-512 512s229.23 512 512 512c282.77 0 512-229.23 512-512s-229.23-512-512-512zM583.12 647.969c-44.702-16.27-72.954-58.211-69.735-104.129l1.073-17.716-17.881 2.169c-65.086 8.316-121.947 36.517-170.226 83.882l-23.603 23.501-6.079-17.355c-12.874-38.687-4.649-79.543 22.172-107.021 14.305-15.185 11.086-17.355-13.589-8.316-8.583 2.892-16.093 5.062-16.808 3.977-2.503-2.531 6.079-35.433 12.874-48.449 9.298-18.078 28.252-35.794 48.993-46.279l17.523-8.316-20.742-0.362c-20.027 0-20.742-0.362-18.596-7.954 7.152-23.501 35.404-48.449 66.874-59.296l22.172-7.593-19.311-11.57c-28.609-16.632-62.225-26.032-95.841-26.755-16.093-0.362-29.325-1.808-29.325-2.892 0-3.616 43.629-23.863 69.020-31.817 76.172-23.501 166.649-13.378 234.597 26.755 48.278 28.563 96.556 85.328 119.086 140.285 12.159 29.286 24.318 82.797 24.318 108.467 0 16.632 1.073 18.801 21.099 38.687 11.801 11.57 22.887 24.224 25.033 27.84 3.576 6.87 3.219 6.87-15.020 0.723-30.397-10.847-34.689-9.401-19.669 6.87 11.086 11.57 24.318 32.54 24.318 38.687 0 1.085-5.364-0.723-11.444-3.977-6.437-3.616-20.742-9.039-31.47-12.293l-19.311-6.146-17.523 11.931c-9.656 6.508-23.245 13.739-30.397 15.909-18.238 5.062-46.133 4.339-62.583-1.446z" />
<glyph unicode="&#xe91c;" glyph-name="whatsapp" d="M512-64c-282.77 0-512 229.23-512 512s229.23 512 512 512c282.77 0 512-229.23 512-512s-229.23-512-512-512zM819.2 455.904c0 165.285-135.013 299.256-301.6 299.296-166.607 0-301.6-133.991-301.62-299.276 0-56.497 15.807-109.429 43.255-154.507l-54.434-160.617 166.988 53.031c43.235-23.681 92.9-37.204 145.771-37.204 166.607 0 301.64 133.991 301.64 299.276zM520.064 706.695c138.205 0 250.67-112.433 250.63-250.591 0-138.217-112.445-250.63-250.63-250.63-50.886 0-98.268 15.247-137.868 41.429l-96.268-30.832 31.284 93.056c-29.997 41.309-47.738 92.078-47.738 146.918 0 138.217 112.405 250.65 250.591 250.65zM688.683 390.263c-2.027 2.993-7.33 4.817-15.264 8.464-7.912 3.647-47.085 21.19-54.35 23.568-7.33 2.438-12.634 3.667-17.937-3.608-5.239-7.275-20.503-23.608-25.181-28.484-4.635-4.856-9.27-5.471-17.226-1.883-7.955 3.687-33.61 11.298-64.009 36.016-23.65 19.267-39.625 42.994-44.239 50.268-4.678 7.255-0.474 11.18 3.471 14.787 3.557 3.271 7.955 8.484 11.944 12.745 3.988 4.222 5.304 7.215 7.955 12.071 2.609 4.856 1.294 9.078-0.668 12.745-1.983 3.647-17.872 39.327-24.534 53.856-6.619 14.51-13.237 12.111-17.894 12.111-4.635 0-9.939 0.595-15.242 0.595s-13.927-1.764-21.192-9.039c-7.265-7.275-27.833-24.817-27.833-60.536 0-35.759 28.479-70.229 32.468-75.065 4.010-4.817 55.062-80.516 135.929-109.575 80.911-29.039 80.911-19.346 95.485-18.117 14.617 1.229 47.085 17.542 53.682 34.47 6.64 17.007 6.64 31.576 4.635 34.609z" />
<glyph unicode="&#xe91d;" glyph-name="youtube" d="M512-64c-282.77 0-512 229.23-512 512s229.23 512 512 512c282.77 0 512-229.23 512-512s-229.23-512-512-512zM511.788 686.933c0 0-213.361 0-266.912-13.915-28.673-8.011-52.283-31.622-60.295-60.716-13.915-53.551-13.915-164.45-13.915-164.45s0-111.32 13.915-164.028c8.012-29.094 31.2-52.283 60.295-60.295 53.973-14.336 266.912-14.337 266.912-14.337s213.784 0 267.334 13.915c29.095 8.012 52.283 30.779 59.873 60.295 14.337 53.13 14.337 164.028 14.337 164.028s0.421 111.321-14.337 164.872c-7.59 29.095-30.778 52.283-59.873 59.873-53.55 14.758-267.334 14.759-267.334 14.759zM409.767 584.447l245.788-141.864-245.788-141.28v283.144z" />
<glyph unicode="&#xe91e;" glyph-name="icon-flag" horiz-adv-x="1088" d="M0 916.239c105.043 58.348 192.578 58.348 262.606 0 105.043-87.521 332.635-280.068 420.17-332.581s210.085-157.538 402.663 17.504v-437.633c-81.7-151.686-175.071-227.529-280.114-227.529-157.564 0-437.677 192.547-542.72 192.547s-227.592-35.009-262.606-105.026v175.043c58.357 46.666 99.207 70.003 122.55 70.008v179.428c105.043-2.485 163.4-12.588 175.071-30.308v165.966c-81.7 23.339-140.057 29.174-175.071 17.504v175.043c-58.357 0-99.207-17.504-122.55-52.513v192.547z" />
<glyph unicode="&#xe91f;" glyph-name="find-hotel" horiz-adv-x="1352" d="M1330.409 32.26c-41.959 33.26-73.429 63.017-92.66 112.030-3.494 7-5.243 15.753-6.992 22.753v1.753c-3.498 12.251-13.984 21.004-26.223 21.004h-1076.914c-12.238 0-22.727-8.753-26.223-21.004-1.748-8.753-3.496-15.757-6.993-24.506-19.23-49.013-52.447-78.77-94.405-113.779v-70.017h1330.409v71.766zM1295.442-2.748h-1260.477v17.506c40.21 29.757 73.426 71.766 92.656 117.277 3.496 7.004 5.245 14.004 6.993 22.757h1062.929c1.745-8.753 3.494-15.753 6.992-22.757 19.231-45.511 50.696-85.77 92.656-117.277v-17.506h-1.749zM1225.499 329.843c-33.214 31.506-57.692 71.766-69.927 115.528-41.959 171.543-162.587 271.319-332.165 306.327-17.486 3.501-34.968 7.002-54.198 8.752 0 8.752-3.494 17.504-5.243 26.257-13.988 33.258-45.453 57.765-82.166 59.515v78.77h69.927c10.49 0 17.482 7.002 17.482 17.504s-6.992 17.504-17.482 17.504h-174.821c-10.49 0-17.486-7.002-17.486-17.504s6.996-17.504 17.486-17.504h69.927v-78.77c-34.963-3.501-66.433-26.257-80.417-59.515-3.498-8.752-5.247-17.504-5.247-26.257-17.482-1.75-34.963-5.251-54.194-8.752-169.579-35.009-290.207-134.784-332.165-306.327-12.238-43.762-36.713-84.021-69.929-115.528v-70.017h1118.87l1.749 70.017zM599.63 774.453c10.49 22.756 33.219 38.51 59.441 38.51h12.239c26.223 0 48.951-14.003 59.437-38.51 1.749-3.501 1.749-8.752 3.498-12.253h-136.364c0 3.501 0 8.752 1.749 12.253zM1190.535 294.834h-1048.942v21.004c33.217 35.009 57.692 77.021 68.181 122.532 36.713 150.537 139.859 245.060 305.941 280.069 34.963 7.002 69.931 10.503 104.894 10.503h90.907c34.968 0 69.931-3.501 104.894-10.503 166.085-35.009 269.23-129.532 305.943-281.822 12.239-45.511 34.963-87.519 68.182-120.779v-21.004z" />
<glyph unicode="&#xe920;" glyph-name="calendar-new" d="M796.111 871.418v73.818c0 3.916-1.551 7.671-4.316 10.439s-6.516 4.324-10.426 4.324c-3.91 0-7.661-1.555-10.426-4.324s-4.316-6.524-4.316-10.439v-73.818h-530.742v73.818c0 3.916-1.553 7.671-4.318 10.439s-6.515 4.324-10.425 4.324c-3.91 0-7.66-1.555-10.425-4.324s-4.318-6.524-4.318-10.439v-73.818h-206.399v-915.348h1002.511v915.348h-206.4zM973.028-14.4h-943.542v649.6h943.542v-649.6zM29.486 664.727v177.164h176.914v-59.054c0-3.916 1.553-7.671 4.318-10.439s6.515-4.324 10.425-4.324c3.91 0 7.66 1.555 10.425 4.324s4.318 6.524 4.318 10.439v59.054h530.742v-59.054c0-3.916 1.551-7.671 4.316-10.439s6.516-4.324 10.426-4.324c3.91 0 7.661 1.555 10.426 4.324s4.316 6.524 4.316 10.439v59.054h176.917v-177.164h-943.542zM398.040 74.179h486.514v472.436h-766.628v-472.436h280.114zM398.040 221.814h206.4v-118.109h-206.4v118.109zM398.040 369.452h206.4v-118.109h-206.4v118.109zM368.554 251.343h-221.142v118.109h221.142v-118.109zM633.924 369.452h221.142v-118.109h-221.142v118.109zM633.924 221.814h221.142v-118.109h-221.142v118.109zM855.067 398.981h-221.142v118.109h221.142v-118.109zM604.441 398.981h-206.4v118.109h206.4v-118.109zM368.554 398.981h-221.142v118.109h221.142v-118.109zM147.412 221.814h221.142v-118.109h-221.142v118.109z" />
<glyph unicode="&#xe921;" glyph-name="brand" horiz-adv-x="976" d="M931.569 901.631c-40.886 60.604-123.178 76.601-183.806 35.744-14.11-9.504-26.253-21.641-35.759-35.744-12.171-17.948-19.799-38.582-22.23-60.127-2.429-21.546 0.41-43.359 8.273-63.566l60.283-133.199 52.033-109.099c1.076-2.103 2.712-3.865 4.729-5.096 2.015-1.234 4.332-1.884 6.694-1.884s4.679 0.65 6.694 1.884c2.017 1.231 3.653 2.993 4.729 5.096l52.033 109.099 60.283 133.199c7.863 20.207 10.704 42.020 8.273 63.566s-10.059 42.179-22.23 60.127zM921.724 787.844l-59.74-132.026-40.077-84.020c-0.064-0.129-0.167-0.129-0.231 0l-39.869 83.556-59.959 132.491c-6.23 16.274-8.435 33.813-6.425 51.122s8.175 33.876 17.97 48.291c9.773 14.477 22.954 26.332 38.386 34.523 15.429 8.191 32.637 12.465 50.109 12.449s34.671-4.324 50.088-12.544c15.415-8.22 28.574-20.1 38.319-34.595 9.752-14.403 15.882-30.946 17.872-48.224 1.988-17.278-0.221-34.78-6.444-51.022zM28.588 417.721c-15.078-22.235-24.53-47.797-27.542-74.49s0.505-53.717 10.249-78.75l74.688-165.028 64.469-135.17c1.332-2.605 3.358-4.791 5.855-6.32 2.497-1.526 5.367-2.334 8.294-2.334s5.798 0.807 8.294 2.334c2.497 1.529 4.523 3.715 5.854 6.32l64.469 135.17 74.688 165.028c9.745 25.033 13.26 52.060 10.247 78.753-3.015 26.693-12.471 52.255-27.553 74.488-50.643 75.081-152.598 94.903-227.711 44.284-17.475-11.781-32.517-26.817-44.303-44.284zM279.338 403.177c12.659-18.687 20.613-40.157 23.185-62.578 2.572-22.423-0.317-45.135-8.416-66.203l-74.16-163.854-55.23-115.822c-0.065-0.129-0.168-0.129-0.232 0l-55.024 115.345-74.379 164.331c-8.103 21.102-10.981 43.849-8.389 66.3 2.592 22.454 10.576 43.946 23.273 62.65 42.717 63.281 128.655 79.962 191.95 37.276 14.769-9.959 27.477-22.671 37.421-37.445zM423.505-18.711c12.757 0.143 25.748 0.374 38.852 0.683l-0.619 25.748c-13.002-0.31-25.874-0.529-38.529-0.669l0.295-25.762zM526.067 478.172l-11.547 23.030c-12.331-6.070-24.047-13.317-34.985-21.64l15.798-20.351c9.614 7.289 19.906 13.641 30.734 18.961zM472.014 434.509l-21.752 13.795c-8.168-12.64-12.952-27.165-13.891-42.184l25.721-1.546c0.655 10.669 4.075 20.985 9.921 29.934zM384.65 6.799l-13.067-0.014-25.526 0.052-0.105-25.762 38.75-0.038-0.052 25.762zM626.995 296.598c-12.629 3.17-25.128 6.325-37.278 9.623l-6.739-24.874c12.319-3.322 24.959-6.53 37.743-9.738l6.275 24.988zM268.698 7.154v-25.762c11.816 0 24.74-0.064 38.581-0.141l0.155 25.762c-12.912 0.081-25.824 0.129-38.736 0.141zM472.059 328.573l16.146 20.080c-8.656 6.606-15.662 15.129-20.463 24.9l-23.323-10.976c6.499-13.293 15.953-24.926 27.641-34.004zM627.953 537.917l5.246-25.221c12.448 2.567 24.955 4.839 37.512 6.816l-4.022 25.452c-12.964-2.041-25.881-4.391-38.736-7.047zM705.674 550.264l2.912-25.595c12.498 1.469 25.031 2.596 37.588 3.377l-1.391 25.721c-1.61-0.090-16.429-0.926-39.11-3.503zM859.498 120.346c0.050 11.245-1.195 22.461-3.71 33.425l-25.090-5.875c2.062-9.028 3.079-18.265 3.029-27.527 0-2.072-0.117-4.16-0.336-6.22l25.605-2.848c0.336 3.003 0.502 6.015 0.502 9.045zM727.395 36.671l6.727-24.871c12.905 3.439 25.619 7.559 38.090 12.338l-9.342 24.012c-11.609-4.446-23.452-8.282-35.476-11.478zM795.534 63.981l13.519-21.935c12.367 7.328 23.366 16.746 32.511 27.834l-20.166 16.024c-7.299-8.737-16.046-16.153-25.864-21.923zM739.997 263.704l-9.254-24.047c11.574-4.367 22.847-9.457 33.775-15.239l12.164 22.721c-11.871 6.277-24.126 11.809-36.685 16.565zM810.96 224.401l-16.496-19.797c8.94-7.316 16.722-15.941 23.080-25.581l21.647 13.974c-7.768 11.833-17.287 22.423-28.231 31.403zM653.117 21.792l3.736-25.49c12.971 1.886 25.898 4.089 38.762 6.606l-4.975 25.271c-11.752-2.317-24.381-4.467-37.524-6.387zM507.721 307.095c12.19-5.577 24.702-10.433 37.459-14.555l8.080 24.459c-11.807 3.801-23.383 8.29-34.664 13.448l-10.876-23.352zM540.222-14.95l-1.484 25.724c-12.783-0.733-25.617-1.341-38.412-1.843l1.005-25.733c12.938 0.5 25.938 1.107 38.891 1.853zM551.581 516.903l8.737-24.24c11.833 4.229 23.831 7.98 35.964 11.245l-6.751 24.859c-12.805-3.443-25.464-7.401-37.95-11.864zM579.132-12.305c13.131 1.055 26.119 2.267 38.891 3.658l-2.796 25.607c-12.526-1.367-25.283-2.55-38.157-3.582l2.062-25.683zM664.719 287.034l-6.532-24.924c12.421-3.246 24.755-6.635 36.828-10.292l7.473 24.655c-12.521 3.758-25.114 7.28-37.769 10.561zM821.855 883.86c-11.295 0-22.337-3.348-31.73-9.621s-16.71-15.189-21.035-25.62c-4.322-10.431-5.453-21.91-3.248-32.984 2.203-11.074 7.642-21.246 15.629-29.229s18.163-13.421 29.241-15.624c11.078-2.203 22.564-1.072 32.999 3.249s19.354 11.638 25.631 21.026c6.275 9.388 9.623 20.425 9.623 31.716 0.062 15.077-5.87 29.561-16.491 40.266-10.619 10.706-25.059 16.756-40.143 16.821h-0.476zM821.855 795.448c-6.199 0-12.257 1.837-17.41 5.279s-9.171 8.334-11.543 14.059c-2.372 5.724-2.993 12.022-1.784 18.099s4.194 11.658 8.578 16.039c4.382 4.381 9.966 7.364 16.046 8.573 6.077 1.209 12.381 0.588 18.106-1.782 5.727-2.371 10.621-6.386 14.065-11.538s5.282-11.208 5.282-17.404c0.045-4.070-0.714-8.108-2.231-11.885s-3.765-7.218-6.613-10.127c-2.846-2.909-6.239-5.229-9.985-6.827-3.744-1.598-7.768-2.443-11.84-2.487h-0.669zM93.907 325.001c0-18.758 7.455-36.747 20.724-50.012s31.267-20.716 50.033-20.716c18.766 0 36.764 7.451 50.033 20.716s20.724 31.253 20.724 50.012c0 18.758-7.455 36.747-20.724 50.012s-31.267 20.716-50.033 20.716c-18.689 0.076-36.642-7.273-49.911-20.428s-20.768-31.039-20.846-49.719v-0.581zM209.65 325.001c0-8.892-2.638-17.587-7.581-24.981s-11.969-13.16-20.189-16.563c-8.22-3.403-17.265-4.294-25.992-2.558-8.726 1.734-16.742 6.018-23.033 12.305-6.291 6.289-10.576 14.303-12.312 23.023-1.736 8.723-0.845 17.765 2.56 25.981s9.171 15.239 16.568 20.18c7.398 4.941 16.095 7.58 24.993 7.58 11.804 0.121 23.173-4.444 31.609-12.698s13.247-19.518 13.376-31.318v-0.953z" />
<glyph unicode="&#xe922;" glyph-name="voucher" horiz-adv-x="2292" d="M1380.879 233.101c-10.772-4.827-22.352-7.612-34.143-8.212-7.222-0.176-14.331 1.809-20.421 5.7-4.403 2.906-7.958 6.939-10.289 11.674-2.54 2.789-5.652 4.998-9.118 6.476-3.472 1.477-7.217 2.189-10.986 2.082-5.622 0.078-11.137-1.531-15.833-4.623-2.716-1.911-5.008-4.364-6.744-7.197-1.731-2.833-2.867-5.993-3.335-9.279-1.268-6.817-0.029-13.839 3.482-19.807 7.865-11.552 18.466-20.972 30.857-27.424s26.185-9.733 40.146-9.552c20.095 0.527 39.858 5.213 58.051 13.761l21.397 9.377 11.956-19.968c4.496-6.685 10.576-12.156 17.701-15.921 7.119-3.764 15.063-5.71 23.118-5.656h7.914c16.384 1.287 32.236 6.388 46.295 14.902 14.063 8.509 25.936 20.192 34.684 34.114 5.539 8.163 11.952 15.687 19.105 22.474 21.87 19.87 48.352 33.948 77.044 40.965l31.666 9.479 2.345-32.88c0.327-12.693 4.135-25.054 11.006-35.723 6.875-10.674 16.55-19.246 27.97-24.781 11.396-5.968 24.064-9.060 36.937-8.977 18.447 0.127 36.464 5.544 51.927 15.604 3.272 2.194 5.964 4.384 8.684 6.578 3.218 2.643 6.461 5.125 10.103 7.685l20.792 18.988 18.71-18.695c2.214-1.482 4.379-3.038 6.251-4.545 13.332-7.192 28.35-10.664 43.486-10.060 7.236 0.024 14.468 0.556 21.636 1.585l1.848 0.263h75.698c6.997 0 13.712 2.779 18.656 7.734 4.949 4.954 7.729 11.669 7.729 18.676 0 7.002-2.779 13.722-7.729 18.671-4.944 4.954-11.659 7.739-18.656 7.739h-39.58c-14.107 0.449-28.223-0.268-42.213-2.141l-31.666-6.339-3.009 8.48-9.284 9.27c-11.849 10.508-26.936 16.638-42.75 17.374-5.354-0.054-10.674-0.814-15.828-2.267-14.307-3.501-27.268-11.142-37.259-21.972l-15.565-15.609h-4.037c-3.828-1.746-7.997-2.643-12.22-2.643h-31.134l5.12 30.769c3.769 14.999 2.297 30.842-4.169 44.895-5.144 7.846-12.4 14.078-20.929 17.979s-17.983 5.315-27.277 4.072c-8.231-0.054-16.443-0.736-24.566-2.033-44.724-7.387-86.611-26.761-121.217-56.066-5.276-5.281-9.63-10.377-13.8-15.184s-8.494-9.772-12.585-13.839c-2.189-2.219-4.905-5.544-7.651-8.845-3.433-4.237-7.031-8.333-10.791-12.283l-18.632-18.671-18.681 18.647c-1.98 2.048-3.818 4.228-5.515 6.519l-1.477 0.717-2.638 2.453c-10.425 10.547-24.576 16.56-39.395 16.745-14.38-0.707-28.438-4.545-41.189-11.249zM0-43.554h2269.184v1003.554h-2269.184v-1003.554zM2216.409 9.265h-2163.637v897.917h2163.637v-897.917zM237.457 695.905h422.127c14.585 0 26.409-11.824 26.409-26.409v0c0-14.585-11.824-26.409-26.409-26.409h-422.127c-14.585 0-26.409 11.824-26.409 26.409v0c0 14.585 11.824 26.409 26.409 26.409zM237.457 484.631h1187.314c14.585 0 26.409-11.824 26.409-26.409v0c0-14.585-11.824-26.409-26.409-26.409h-1187.314c-14.585 0-26.409 11.824-26.409 26.409v0c0 14.585 11.824 26.409 26.409 26.409zM2058.094 616.679h-501.331v-184.863h501.331v184.863zM2005.324 484.632h-395.791v79.228h395.791v-79.228z" />
</font>
</defs>
</svg>
